KeyFC欢迎致辞,点击播放
资源、介绍、历史、Q群等新人必读
KeyFC 社区总索引
如果你找到这个笔记本,请把它邮寄给我们的回忆
KeyFC 漂流瓶传递活动 Since 2011
 

[文物] [多种方式下载]Key Sounds Label无损音乐资源(KSLA-0025以后更新中)

[ 92317 查看 / 131 回复 ]

回复:[多种方式下载]Key Sounds Label无损音乐资源(KSLA-0021~0025更新中)

感谢LZ和收集这些资源的大大们,这么好的东西一下能收全简直做梦一样的事情!
目前的已经全部下完了,上传辛苦了~期待后面的,可以慢慢来,有的下就满足了.

顺便报告一下,以下的FS失效了 11,12-13-14,15,还有6楼的两个
TOP

回复:[多种方式下载]Key Sounds Label无损音乐资源(KSLA-0021~0025更新中)

LZ真是太好了,把这么难得的东东拿出来分享,准备全部收藏了[:Yeah:] [:Yeah:] [:Yeah:]
TOP

回复:[多种方式下载]Key Sounds Label无损音乐资源(KSLA-0021~0025更新中)

KSLA-0011
[Arrange][KSL] MABINOGI CLANNAD arrange album [APE][BK].rar
KSLA-0012-0013-0014
[Soundtrack] CLANNAD Original Soundtrack [APE][BK].rar
KSLA-0015
[Arrange][KSL] クラナド イメージ ボーカル アルバム ソララドアペンド [TTA].rar
KSLA-0016 / KSLA-0017
[Arrange][KSL] CLANNAD remix album memento [APE].rar

点到最后16-17才有文件,其它的都说文件不存在了
TOP

回复:[多种方式下载]Key Sounds Label无损音乐资源(KSLA-0021~0025更新中)

[KSLA-0003][Arrange]KANON arrange best album recollections中
第二和第三首之间cue文件的分割似乎有问题

解决方法:
用记事本打开cue文件,找到:
  TRACK 03 AUDIO
    TITLE "朝影"
    PERFORMER "戸越まごめ"
    INDEX 01 10:57:00
把下面的时间改成:
    INDEX 01 10:16:00

个人blog:
TOP

回复:[多种方式下载]Key Sounds Label无损音乐资源(KSLA-0021~0025更新中)

确实是这样呢,多谢 幽煌冥月了。好像在哪里见过你的id,另一个kfc吧大概

另外fs2失效的问题我也发现了....没办法,fs2失效是不可避免的了....[:Cry:]
TOP

回复:[多种方式下载]Key Sounds Label无损音乐资源(KSLA-0021~0025更新中)

继续支持楼主,等待下面的……[:Yeah:]
太陽多輝煌,向我照耀;自然多明媚,原野合笑!
TOP

回复:[多种方式下载]Key Sounds Label无损音乐资源(KSLA-0021~0025更新中)

老问题:还是0003号:
  TRACK 07 AUDIO
    TITLE "冬の花火"
    PERFORMER "折戸伸治"
    INDEX 01 29:49:00

改成:
    INDEX 01 29:19:00

个人blog:
TOP

回复:[多种方式下载]Key Sounds Label无损音乐资源(KSLA-0021~0025更新中)

恩,果然有问题呢
改好了,感谢LS的~
TOP

回复: [多种方式下载]Key Sounds Label无损音乐资源(KSLA-0021~0025更新中)

回報樓長  目前Fs2You的KSLA-0002的檔案無法下載(即error)

話說在下昨天才發現此帖  因為在用BT下anime (宿舍限流太麻煩)

今天才有機會下載

目前下載進度:KSLA-0001  KSLA-0003  KSLA-0004/0005皆已載完
                      KSLA-0006  KSLA-0007 皆為下載中

何時才能下載完呢?
最后编辑st930324 最后编辑于 2008-04-16 17:42:47
TOP

回复: [多种方式下载]Key Sounds Label无损音乐资源(KSLA-0021~0025更新中)

目前Fs2You的KSLA-0008的檔案無法下載(即error)
TOP